Movies » DVDRiP :

The Stunt Man 1980 iNTERNAL DVDRip XviD-EXViDiNT

      Author: zain1994   |   5 February 2012   |   comments: 0

Download Required File Through Downloader (100% Working)

The Stunt Man 1980 iNTERNAL DVDRip XviD-EXViDiNT

The Stunt Man 1980 iNTERNAL DVDRip XviD-EXViDiNT | 1.38 GB
IMDB Info
Turbobit & Letitbit

While on the run from the police, Steve Railsback hides in a group of moviemakers where he pretends to be a stunt man. Both aided and endangered by the director (Peter O'Toole) he avoids both the police and sudden death as a stuntman. The mixture of real danger and fantasy of the movie is an interesting twist for the viewer as the two blend in individual scenes.

Stats:
Format: AVI
Format/Info: Audio Video Interleave
Format profile: OpenDML
File size: 1.37 GiB
Duration: 2h 10mn
Overall bit rate: 1 504 Kbps

Video
ID: 0
Format: MPEG-4 Visual
Format profile: Advanced Simple@L5
Format settings, BVOP: 2
Format settings, QPel: No
Format settings, GMC: No warppoints
Format settings, Matrix: Default (H.263)
Codec ID: XVID
Codec ID/Hint: XviD
Duration: 2h 10mn
Bit rate: 1356 Kbps
Width: 640 pixels
Height: 352 pixels
Display aspect ratio: 16:9
Frame rate: 23.976 fps
Color space: YUV
Chroma subsampling: 4:2:0
Bit depth: 8 bits
Scan type: Progressive
Compression mode: Lossy
Bits/(Pixel*Frame): 0.251
Stream size: 1268 MiB (91%)
Writing library: XviD 64

Audio
ID: 1
Format: MPEG Audio
Codec ID: 55
Codec ID/Hint: MP3
Duration: 2h 10mn
Bit rate mode: Variable
Bit rate: 133 Kbps
Channel(s): 2 channels
Sampling rate: 48.0 KHz
Compression mode: Lossy
Stream size: 124 MiB (9%)
Alignment: Aligned on interleaves


The Stunt Man 1980 iNTERNAL DVDRip XviD-EXViDiNT

Buy Premium to Support Me

http://extabit.com/file/2dvf83x2yh41c

Buy Premium to Support Me
The Stunt Man 1980 iNTERNAL DVDRip XviD-EXViDiNT is available on a new fast direct download service with over 2,210,000 Files to choose from.Download anything with more then 1000+ Kb/s downloading speed.Signup process takes just 10 sec to go.Signup today and enjoy the speed !
Information
Would you like to leave your comment? Please Login to your account to leave comments. Don't have an account? You can create a free account now.
Home        |        Register        |        Forums        |        RSS        |        Rules        |        DMCA Policy        |        Contact Us
DISCLAIMER
None of the files shown here are hosted or transmitted by this server. The links are provided solely by this site's users. The administrator of this site (Dl4All.com) cannot be held responsible for what its users post, or any other actions of its users. You may not use this site to distribute or download any material when you do not have the legal rights to do so. It is your own responsibility to adhere to these terms.

Copyright © 2006-2012 Dl4All. All rights reserved.